Universal Access To All Knowledge
Home Donate | Store | Blog | FAQ | Jobs | Volunteer Positions | Contact | Bios | Forums | Projects | Terms, Privacy, & Copyright
Search: Advanced Search
Anonymous User (login or join us)
Upload
Search Results
Results: 1 through 7 of 7 (0.001 secs)
You searched for: reviewer:"BlueBear"
[etree]Alex Skolnick Trio Live at Wilbert's Food & Music on 2008-03-21 - Alex Skolnick Trio
TRACK 01 AUDIO TITLE "Intro" PERFORMER "Alex Skolnick Trio" INDEX 01 00:00:00 TRACK 02 AUDIO TITLE "Still Loving You" PERFORMER "Alex Skolnick Trio" INDEX 01 02:58:00 TRACK 03 AUDIO TITLE "Mercury Retrograde" PERFORMER "Alex Skolnick Trio" INDEX 01 13:58:00 TRACK 04 AUDIO TITLE "Detroit Rock City" PERFORMER "Alex Skolnick Trio" INDEX 01 19:05:00 TRACK 05 AUDIO TITLE "The Lizard" PERFORMER "Alex Skolnick Trio" INDEX 01 29:00:00 TRACK 06 AUDIO TITLE "Revelation (Mother Earth)" PERFORMER "Alex Skol...
Keywords: Jazz; Metal
Downloads: 1,830 3.00 out of 5 stars3.00 out of 5 stars3.00 out of 5 stars(1 review)
[etree]Grateful Dead Live at Shoreline Amphitheatre on 1989-09-30 - Grateful Dead
Bertha-> Greatest Story Ever Told, West LA Fadeaway, Queen Jane Approximately, Row Jimmy, Let It Grow Iko Iko, Estimated Prophet-> Truckin'-> Smokestack Lightnin'-> Drums-> Space-> I Will Take You Home-> The Wheel-> All Along The Watchtower-> Touch Of Grey, E: U.S.Blues
Keywords: Live concert
Downloads: 4,737 3.50 out of 5 stars3.50 out of 5 stars3.50 out of 5 stars3.50 out of 5 stars(3 reviews)
[etree]Grateful Dead Live at Shoreline Amphitheatre on 1989-06-21 - Grateful Dead
Hideaway, Touch Of Gray, Minglewood Blues, Ramble On Rose, Box Of Rain, Dire Wolf, When I Paint My Masterpiece, Row Jimmy, Cassidy, Deal Scarlet Begonias-> Hell In A Bucket*, Ship of Fools*, Estimated Prophet*-> Eyes Of The World*-> Drums-> Jam-> Truckin'*-> The Other One*-> Morning Dew*-> Turn On Your Love Light*, E: Brokedown Palace
Keywords: Live concert
Downloads: 9,673 3.50 out of 5 stars3.50 out of 5 stars3.50 out of 5 stars3.50 out of 5 stars(7 reviews)
[etree]Keller Williams Live at The Moon on 2004-01-27 - Keller Williams
1 Art-> 2 Sally Sullivan-> 3 Bad-> 4 Sally Sullivan-> 5 Dear Emily-> 6 Mountains Of The Moon-> 7 We Want The Funk-> 8 Apparition-> 9 Vacate 10 Mental Instra-> 11 Breathe 12 Play This 13 Moondance 14 Instrumental 15 Pre Rapper's Delight Loup 16 Rapper's Delight Disc2 set II 1 Nomini-> 2 Fat B-> 3 Eh Oh loup*-> 4 Eva Braun* 5 new instrumental 6 In The City-> 7 Karate->+ 8 Zilla-> 9 Dogs-> 10 Loup 11 loup 12 Above The Thunder 13 Mullet Cut 14 Born To Run Disc3 set II cont...
Keywords: Live concert
Downloads: 11,214 4.50 out of 5 stars4.50 out of 5 stars4.50 out of 5 stars4.50 out of 5 stars4.50 out of 5 stars(7 reviews)
[etree]Grateful Dead Live at Winterland Arena on 1973-11-11 - Grateful Dead
Promised Land-> Bertha-> Greatest Story Ever Told, Sugaree, Black Throated Wind, To Lay Me Down, El Paso, Ramble On Rose, Me And Bobby McGee, China Cat Sunflower-> I Know You Rider, Me & My Uncle, Loose Lucy, Weather Report Suite Prelude-> Weather Report Suite Part 1-> Let It Grow Mississippi Half Step, Big River, Dark Star-> Mind Left Body Jam-> Eyes Of The World>China Doll, Sugar Magnolia E:Uncle John's Band, Johnny B...
Keywords: Live concert
Downloads: 19,073 5.00 out of 5 stars5.00 out of 5 stars5.00 out of 5 stars5.00 out of 5 stars5.00 out of 5 stars(43 reviews)
[etree]Grateful Dead Live at Shoreline Amphitheatre on 1991-05-10 - Grateful Dead
Jack Straw, They Love Each Other, Walkin' Blues, Stagger Lee, Me & My Uncle-> Maggie's Farm, Cold Rain & Snow, Desolation Row, Don't Ease Me In Foolish Heart-> Saint Of Circumstance, Crazy Fingers-> Truckin'-> New Speedway Boogie-> Drums-> Jam-> The Wheel-> All Along The Watchtower-> Black Peter-> Sugar Magnolia, E: It's All Over Now Baby Blue
Keywords: Live concert
Downloads: 29,990 5.00 out of 5 stars5.00 out of 5 stars5.00 out of 5 stars5.00 out of 5 stars5.00 out of 5 stars(26 reviews)
[etree]Grateful Dead Live at Giants Stadium on 1989-07-10 - Grateful Dead
Feel Like A Stranger-> Franklin's Tower, Walkin' Blues, Jack A Roe, When I Paint My Masterpiece, Tennessee Jed, The Music Never Stopped-> Don't Ease Me In Foolish Heart, A Little Light, Playin->UJB->Drumz*->Iko Iko*->Watchtower*->Morning Dew*->Sugar Magnolia* E:Heaven's Door*
Keywords: Live concert
Downloads: 22,931 4.50 out of 5 stars4.50 out of 5 stars4.50 out of 5 stars4.50 out of 5 stars4.50 out of 5 stars(32 reviews)
Advanced search

Group results by:

> Relevance
Mediatype
Collection

Related mediatypes

etree